Boy Hood 2017 | Apne Ruthe Paraye Ruthe mp3 | Continue Reading

Movies - Other

Three Billboards Outside Ebbing Missouri 2017 DK SWESUB DVDScr XVID AC3-Stiffy

  • Download 5x Faster
  • Download torrent
  • Direct Download
  • Rate this torrent +  |  -

Torrent info

Name:Three Billboards Outside Ebbing Missouri 2017 DK SWESUB DVDScr XVID AC3-Stiffy

Total Size: 1.51 GB

Magnet: Magnet Link

Seeds: 66

Leechers: 13

Stream: Watch Full Movie @ Movie4u

Last Updated: 2018-01-18 07:41:45 (Update Now)

Torrent added: 2018-01-14 10:00:25



VPN For Torrents

Torrent Files List


Three.Billboards.Outside.Ebbing.Missouri.2017.DK.SWESUB.DVDScr.XVID.AC3-Stiffy.mkv (Size: 1.51 GB) (Files: 1)

 Three.Billboards.Outside.Ebbing.Missouri.2017.DK.SWESUB.DVDScr.XVID.AC3-Stiffy.mkv

1.51 GB
 

tracker

leech seeds
 

Torrent description

Three.Billboards.Outside.Ebbing.Missouri.2017.DK.SWESUB.DVDScr.XVID.AC3-Stiffy


http://www.imdb.com/title/tt5027774/
A mother personally challenges the local authorities to solve her daughter\'s murder when they fail to catch the culprit.


Swedish subtitle by: StoraStyggaVargen
Danish subtitle by: UNiTY


Mediainfo:

Format : Matroska
Format version : Version 4 / Version 2
File size : 1.51 GiB
Duration : 1h 55mn
Overall bit rate : 1 877 Kbps
Encoded date : UTC 2018-01-14 09:08:05
Writing application : mkvmerge v18.0.0 (\'Apricity\') 64-bit
Writing library : libebml v1.3.5 + libmatroska v1.4.8

Video
ID : 1
Format : MPEG-4 Visual
Format profile : Advanced [emailprotected]
Format settings, BVOP : 2
Format settings, QPel : Yes
Format settings, GMC : No warppoints
Format settings, Matrix : Default (H.263)
Muxing mode : Packed bitstream
Codec ID : V_MS/VFW/FOURCC / XVID
Codec ID/Hint : XviD
Duration : 1h 55mn
Bit rate : 1 619 Kbps
Width : 720 pixels
Height : 304 pixels
Display aspect ratio : 2.35:1
Frame rate mode : Constant
Frame rate : 29.970 (30000/1001) fps
Color space : YUV
Chroma subsampling : 4:2:0
Bit depth : 8 bits
Scan type : Progressive
Compression mode : Lossy
Bits/(Pixel*Frame) : 0.247
Stream size : 1.30 GiB (86%)
Writing library : XviD 1.2.1 (UTC 2008-12-04)
Default : Yes
Forced : No

Audio
ID : 2
Format : AC-3
Format/Info : Audio Coding 3
Mode extension : CM (complete main)
Format settings, Endianness : Big
Codec ID : A_AC3
Duration : 1h 55mn
Bit rate mode : Constant
Bit rate : 256 Kbps
Channel(s) : 2 channels
Channel positions : Front: L R
Sampling rate : 48.0 KHz
Frame rate : 31.250 fps (1536 spf)
Compression mode : Lossy
Stream size : 211 MiB (14%)
Default : Yes
Forced : No

Text #1
ID : 3
Format : UTF-8
Codec ID : S_TEXT/UTF8
Codec ID/Info : UTF-8 Plain Text
Duration : 1h 49mn
Bit rate : 57 bps
Count of elements : 1051
Stream size : 46.2 KiB (0%)
Language : Swedish
Default : Yes
Forced : No

Text #2
ID : 4
Format : UTF-8
Codec ID : S_TEXT/UTF8
Codec ID/Info : UTF-8 Plain Text
Duration : 1h 49mn
Bit rate : 45 bps
Count of elements : 1014
Stream size : 36.1 KiB (0%)
Language : Danish
Default : No
Forced : No

related torrents

Torrent name

health leech seeds Size
 


comments (0)

Main Menu